Planet TV

Nekaj o novih in starih TV programih, vidnih v Sloveniji.

Moderators: komar, komar, komar

User avatar
komar
Posts: 377
Joined: 30 Aug 2010, 13:15
Kabelski ponudnik: Telemach (Ljubljana in okolica)
Paket: Digitalni paket SILVER 2, s 1. 2. hitrosti do 40 Mbps/1 Mbps, UniFi do 1 Mbps/1 Mbps, začetni paket
DVB-C Sprejemnik: Handan CV-6000 DVR

Re: Planet TV

Post by komar » 01 Nov 2012, 13:31

yasny wrote:Komercialke imajo lahko po zakonu največ 12 minut reklam...
...v celi uri, npr. med 20. in 21. uro; ne štejejo pa se napovedniki lastnih programskih vsebin istega programa.
Napoved vremena za februar 2018: http://forum.zevs.si/index.php/topic,6652.0.html
Satelitske, radarske slike in animacije: http://forum.zevs.si/index.php/topic,6478.0.html

cable
Posts: 310
Joined: 30 Aug 2010, 12:17
Kabelski ponudnik: .

Re: Planet TV

Post by cable » 06 Nov 2012, 01:15

Amaterizem tudi na planet TV:

Image

Današnje soočenje tudi uničeno z upscale in metanjem denarja stran. Nepotrebno najemanje dvbpro produkcije in opere. Brez problema bi predvajali iz studia kjer imajo oddajo DANES in v HD. Za tiste štiri pulte bi bilo dovolj prostora.

User avatar
krebs11
Posts: 13
Joined: 01 Feb 2010, 19:40
Kabelski ponudnik: Telemach
Paket: Gold Extra 80/4 Mbps
DVB-C Sprejemnik: LG 42LE5300,Edision Piccollo DVB-C HD,Edision ARGUS mini-T HD DVB-T, Philips dvdr 3575h

Re: Planet TV

Post by krebs11 » 06 Nov 2012, 18:16

Meni HD Planet TV kar naprej šteka, slika se zaustavi in potem gre nekaj časa ok nato se spet ustavi, zvok je pa normalen, če stream posnamem, mi pa na pc-ju kaže kocke tam, kjer se je na tv slika ustavila, niso pa povsod, samo na enem delu slike, medtem ko HD History mi dela že par mesecev ok. še info o posneti datoteki:
General
ID : 128 (0x80)
Complete name : J:\ALIDVRS2\2012-11-06.17.53.33-HD Planet TV-790\000.ts
Format : MPEG-TS
File size : 107 MiB
Duration : 1mn 20s
Start time : UTC 2012-11-06 16:54:53
End time : UTC 2012-11-06 16:54:53
Overall bit rate : 11.0 Mbps
Network name : Telemach
Country : SVN
Timezone : +01:00:00

Video
ID : 1101 (0x44D)
Menu ID : 12801 (0x3201)
Format : AVC
Format/Info : Advanced Video Codec
Format profile : High@L4.0
Format settings, CABAC : Yes
Format settings, ReFrames : 3 frames
Codec ID : 27
Duration : 1mn 20s
Bit rate : 10.2 Mbps
Width : 1 920 pixels
Height : 1 080 pixels
Display aspect ratio : 16:9
Frame rate : 25.000 fps
Color space : YUV
Chroma subsampling : 4:2:0
Bit depth : 8 bits
Scan type : Interlaced
Scan order : Top Field First
Bits/(Pixel*Frame) : 0.197
Stream size : 98.3 MiB (92%)
Color primaries : BT.709-5, BT.1361, IEC 61966-2-4, SMPTE RP177
Transfer characteristics : BT.709-5, BT.1361
Matrix coefficients : BT.709-5, BT.1361, IEC 61966-2-4 709, SMPTE RP177

Audio
ID : 1102 (0x44E)
Menu ID : 12801 (0x3201)
Format : MPEG Audio
Format version : Version 1
Format profile : Layer 2
Codec ID : 4
Duration : 1mn 20s
Bit rate mode : Constant
Bit rate : 256 Kbps
Channel(s) : 2 channels
Sampling rate : 48.0 KHz
Compression mode : Lossy
Delay relative to video : -1s 220ms
Stream size : 2.46 MiB (2%)
Language : Slovenian
Language, more info : Clean effects

Menu
ID : 1100 (0x44C)
Menu ID : 12801 (0x3201)
Duration : 1mn 20s
List : 1101 (0x44D) (AVC) / 1102 (0x44E) (MPEG Audio, Slovenian)
Language : / Slovenian
Service name : HD Planet TV
Service provider : Telemach
Service type : digital television

Še info o History HD, razlika je samo v profilih in bit rate, Planet HIGH, History MAIN:
General
ID : 119 (0x77)
Format : MPEG-TS
File size : 149 MiB
Duration : 2mn 36s
Overall bit rate : 7 969 Kbps

Video
ID : 1301 (0x515)
Menu ID : 11903 (0x2E7F)
Format : AVC
Format/Info : Advanced Video Codec
Format profile : Main@L4.0
Format settings, CABAC : Yes
Format settings, ReFrames : 4 frames
Codec ID : 27
Duration : 2mn 36s
Bit rate : 7 381 Kbps
Width : 1 920 pixels
Height : 1 080 pixels
Display aspect ratio : 16:9
Frame rate : 25.000 fps
Color space : YUV
Chroma subsampling : 4:2:0
Bit depth : 8 bits
Scan type : Interlaced
Scan order : Top Field First
Bits/(Pixel*Frame) : 0.142
Stream size : 137 MiB (92%)
Color primaries : BT.709-5, BT.1361, IEC 61966-2-4, SMPTE RP177
Transfer characteristics : BT.709-5, BT.1361
Matrix coefficients : BT.709-5, BT.1361, IEC 61966-2-4 709, SMPTE RP177

Audio
ID : 1302 (0x516)
Menu ID : 11903 (0x2E7F)
Format : MPEG Audio
Format version : Version 1
Format profile : Layer 2
Codec ID : 3
Duration : 2mn 36s
Bit rate mode : Constant
Bit rate : 192 Kbps
Channel(s) : 2 channels
Sampling rate : 48.0 KHz
Compression mode : Lossy
Delay relative to video : 89ms
Stream size : 3.57 MiB (2%)
Language : English

User avatar
Izi
Posts: 179
Joined: 06 Nov 2009, 13:18
Kabelski ponudnik: Telemach
Paket: Razširjeni paket
DVB-C Sprejemnik: TechniSat DIGIT HD4-CX
Location: Ljubljana

Re: Planet TV

Post by Izi » 07 Nov 2012, 09:28

krebs11 wrote:Meni HD Planet TV kar naprej šteka, slika se zaustavi in potem gre nekaj časa ok nato se spet ustavi, zvok je pa normalen, ...
Sicer ti to ne bo pomagalo, vendar moram omeniti, da pri meni HD Planet TV dela brez najmanjših problemov. Nič zatikanja, slika odlična ves čas, edino elektronskega sporeda še nimajo.

test1
Posts: 130
Joined: 31 Aug 2009, 22:25
Kabelski ponudnik: Telemach
Paket: Digital L
DVB-C Sprejemnik: Handan HD, DVR

Re: Planet TV

Post by test1 » 07 Nov 2012, 17:54

enako pri meni! :)

cable
Posts: 310
Joined: 30 Aug 2010, 12:17
Kabelski ponudnik: .

Re: Planet TV

Post by cable » 07 Nov 2012, 22:34

Izi wrote:
krebs11 wrote:Meni HD Planet TV kar naprej šteka, slika se zaustavi in potem gre nekaj časa ok nato se spet ustavi, zvok je pa normalen, ...
Sicer ti to ne bo pomagalo, vendar moram omeniti, da pri meni HD Planet TV dela brez najmanjših problemov. Nič zatikanja, slika odlična ves čas, edino elektronskega sporeda še nimajo.
Vse vsebine so upscale! Razen nogometa in DANES. Toliko o HD nategovanju.

DownTaker
Posts: 285
Joined: 23 Sep 2009, 22:14
Kabelski ponudnik: Elektro Turnšek
Paket: paket MIX L + HD
DVB-C Sprejemnik: Sony Bravia 40W5820

Re: Planet TV

Post by DownTaker » 08 Nov 2012, 01:45

ja in...
vsaj kvalitetna slika je
velik bolj kot na večini slo programih

verjetno bodo s časom več vsebin kupoval v HD
sicer ne gledam veliko tega programa samo vmes vidim da so določene vsebine in napovedniki v HD

če bi se vsi naši programi zgledoval po Planet tv, bi teb cable postal hitro dolgčas
...vse do uvajanja 3D...

User avatar
robirobertorle
Posts: 494
Joined: 20 Sep 2009, 12:54
Kabelski ponudnik: Siol kabelska
DVB-C Sprejemnik: LCD TV Sony Bravia 40 KDL 46 EX 720
Location: Orle

Re: Planet TV

Post by robirobertorle » 08 Nov 2012, 05:57

Res je, tudi ko imajo poročila oziroma vreme je odlično. Mislim da se bo popovcem s časom začelo kolcati, zakaj niso poslušali ljudi iz ulice!

TV1
Posts: 100
Joined: 13 Sep 2011, 07:27
Kabelski ponudnik: Telemach digital trojček

Re: Planet TV

Post by TV1 » 08 Nov 2012, 08:42

Tudi domača produkcija je odlična. Paradise Hotel že podira rekorde.

User avatar
pilot
Posts: 400
Joined: 28 Sep 2009, 20:11
Kabelski ponudnik: Telemach
Paket: Gold trojka Extra (150/4 Mbps)
DVB-C Sprejemnik: Philips, LG
Location: Ljubljana

Re: Planet TV

Post by pilot » 10 Nov 2012, 00:57

TV1 wrote:Paradise Hotel že podira rekorde.
Vir?

Post Reply

Who is online

Users browsing this forum: No registered users and 4 guests